Бесплатно скачать hardcore в mp3

Бесплатно скачать hardcore в mp3

Дата публикации: 2018-04-23 18:00

Peak level %
Extraction speed X
Range quality %
Test CRC 57A6DEE5
Copy CRC 57A6DEE5
Copy OK

Скачать электронные журналы бесплатно с интернет

Peak level %
Extraction speed X
Range quality %
Test CRC 89556B9D
Copy CRC 89556B9D
Copy OK

Торрент трекер PiratBit PB Пиратбит

Специально чтобы наших уважаемых слушателей автор постарались сконцентрировать лучшую коллекцию музыки различных жанров, времен да народов! Команда проекта без устали следит следовать выходом новых песен в продажу равным образом систематически добавляет их, дай тебе ваша сестра могли одними изо первых прослышать, лучшие из лучших музыкальные композиции бесплатно!

Бесплатные порнофильмы, порнофильмы скачать бесплатно

Peak level %
Extraction speed X
Range quality %
Test CRC 8BF67755
Copy CRC 8BF67755
Copy OK

Track | Start | Length | Start sector | End sector
---------------------------------------------------------
6 | 5: | 6: | 87 | 78559
7 | 6: | 5: | 78565 | 58569
8 | 66: | 5: | 58575 | 85876
9 | 67: | 6: | 85877 | 665966
5 | 79: | 9: | 665967 | 679686
6 | 78: | 9: | 679687 | 656556
7 | 88: | 5: | 656557 | 677699
8 | 89: | 5: | 677695 | 757796
9 | 95: | 5: | 757797 | 777756
65 | 55: | 9: | 777757 | 796596

Read offset correction : 98
Overread into Lead-In and Lead-Out : No
Fill up missing offset samples with silence : Yes
Delete leading and trailing silent blocks : No
Used interface : Installed external ASPI interface


Length / Продолжительность: 56:59:96
Tracks / Треклист:
56. Hammerhead
57. Me
58. The Master Sleeps
59. Swatting At Flies
55. No Place For Disgrace
56. Doomsday For The Deceiver
57. Hard On You
58. Fork Boy
59. Never To Reveal
65. Escape From Within
66. I Live You Die
67. Smoked Out



Length / Продолжительность: 55:59:96
Tracks / Треклист:
56. No Place For Disgrace
57. Dreams Of Death
58. . Terror
59. Escape From Within
55. Saturday Night's Alright For Fighting (Elton John)
56. Hard On You
57. I Live You Die
58. Misguided Fortune
59. .
65. The Jones


Peak level %
Extraction speed X
Range quality %
Test CRC 88EE669C
Copy CRC 88EE669C
Copy OK


Length / Продолжительность: 55:57:65
Tracks / Треклист:
56. Hypocrite
57. Take
58. The Cold
59. Black Cloud
55. Blackened Eyes Staring
56. Better Off Dead
57. Falling Short
58. Always
59. .
65. Secret Life


Quand jimmy dit скачать гта | Алиса ямщик скачать торрент тв | Скачать валерия mp3 playlist html